vrijdag 20 oktober 2017

Zamaana Deewana (1995) NTSC DvDRip x264.AC3.Arabic.Eng.Sub.Chapters. BY.juleyano

Zamaana Deewana (1995) NTSC DvDRip x264.AC3.Arabic.Eng.Sub.Chapters. BY.juleyano


http://www.imdb.com/title/tt0115042/
Stars: Jeetendra, Shatrughan Sinha, Shah Rukh
Khan |
Format : Matroska
Format version : Version 4 / Version 2
File size : 1.77 GiB
Duration : 2 h 56 min
Overall bit rate : 1 433 kb/s
Encoded date : UTC 2017-04-

13T21:51:46Z
Video
ID : 1
Format : AVC
Format/Info : Advanced Video Codec
Format profile : High@L3.1
Format settings, CABAC : Yes
Format settings, ReFrames : 4 frames
Codec ID : V_MPEG4/ISO/AVC
Duration : 2 h 56 min
Bit rate : 1 200 kb/s
Width : 720 pixels
Height : 332 pixels
Display aspect ratio : 1.937
Original display aspect rat : 1.939
Frame rate mode : Constant
Frame rate : 25.000 FPS
Audio
ID : 2
Format : AC-3
Format/Info : Audio Coding 3
Mode extension : CM (complete main)
Format settings, Endianness : Big
Codec ID : A_AC3
Duration : 2 h 56 min
Bit rate mode : Constant
Bit rate : 224 kb/s
Channel(s) : 2 channels
Channel positions : Front: L R
Sampling rate : 48.0 kHz
Frame rate : 31.250 FPS (1536 spf)
Bit depth : 16 bits
Compression mode : Lossy
Text
ID : 3
Format : VobSub
Codec ID : S_VOBSUB
Menu
00:00:00.000 : :Chapter 1
00:00:09.240 : :Chapter 2








1.77 GB
https://dfiles.eu/files/ggiis3me9?redirect

الترجمة العربية الاحترافية بالرابط التالي
http://egystars.com/vb/showthread.php?t=15475

Naqab (1989) WEBRip x264.AC3.Hard.E.Sub.5.1.Und.BY.juleyano

Naqab (1989) WEBRip x264.AC3.Hard.E.Sub.5.1.Und.BY.juleyano


http://www.imdb.com/title/tt0232160/
Stars: Rishi Kapoor, Bindu, Farha Naazi |
Format : Matroska
Format version : Version 4 / Version 2
File size : 1.38 GiB
Duration : 2 h 18 min
Overall bit rate : 1 422 kb/s
Encoded date : UTC 2017-10-19T20:59:18Z
Video
ID : 1
Format : AVC
Format/Info : Advanced Video Codec
Format profile : High@L3.1
Format settings, CABAC : Yes
Format settings, ReFrames : 4 frames
Codec ID : V_MPEG4/ISO/AVC
Duration : 2 h 18 min
Bit rate : 1 200 kb/s
Width : 640 pixels
Height : 352 pixels
Display aspect ratio : 1.85:1
Original display aspect rat : 1.85:1
Frame rate mode : Constant
Frame rate : 23.976 (24000/1001) FPS
Color space : YUV
Audio
ID : 2
Format : AC-3
Format/Info : Audio Coding 3
Mode extension : CM (complete main)
Format settings, Endianness : Big
Codec ID : A_AC3
Duration : 2 h 18 min
Bit rate mode : Constant
Bit rate : 224 kb/s
Channel(s) : 6 channels
Channel positions : Front: L C R, Side: L R, LFE
Sampling rate : 48.0 kHz
Frame rate : 31.250 FPS (1536 spf)
Bit depth : 16 bits
Compression mode : Lossy







1.38 GB
https://dfiles.eu/files/6v4r4pkx1?redirect

donderdag 19 oktober 2017

Dil Aashna Hai 1992 Hindi DvDRip x264 AC3 5.1.Arabic.Esubs..Hon3y.BY.juleyano

Dil Aashna Hai 1992 Hindi DvDRip x264 AC3 5.1.Arabic.Esubs..Hon3y.BY.juleyano


http://www.imdb.com/title/tt0101732/
Stars: Jeetendra, Mithun Chakraborty, Dimple Kapadia |
Amrita Singh,Shah Rukh Khan
Format : Matroska
Format version : Version 4 / Version 2
File size : 1.45 GiB
Duration : 2h 35mn
Overall bit rate : 1 337 Kbps
Encoded date : UTC 2013-11-26 1933
Video
ID : 1
Format : AVC
Format/Info : Advanced Video Codec
Format profile : High@L3.1
Format settings, CABAC : Yes
Format settings, ReFrames : 8 frames
Codec ID : V_MPEG4/ISO/AVC
Duration : 2h 35mn
Bit rate : 1 015 Kbps
Width : 720 pixels
Height : 320 pixels
Display aspect ratio : 2.25:1
Frame rate mode : Constant
Frame rate : 23.976 fps
Audio
ID : 2
Format : AC-3
Format/Info : Audio Coding 3
Mode extension : CM (complete main)
Format settings, Endianness : Big
Codec ID : A_AC3
Duration : 2h 35mn
Bit rate mode : Constant
Bit rate : 320 Kbps
Channel(s) : 6 channels
Channel positions : Front: L C R, Side: L R, LFE
Sampling rate : 48.0 KHz
Compression mode : Lossy







1.45 GB
https://dfiles.eu/files/47mnzi8p7?redirect
الترجمة العربية الاحترافية بالرابط التالي
http://egystars.com/vb/showthread.php?t=15468

woensdag 18 oktober 2017

Aashiq (2001) DvDRip x264. AC3. 5.1.Chapters. Esubs.BY.juleyano

Aashiq (2001) DvDRip x264. AC3. 5.1.Chapters. Esubs.BY.juleyano


http://www.imdb.com/title/tt0273406/
Stars: Bobby Deol, Rahul Dev, Dinesh Hingoo |
Thanks Allexx Bro for DVD9
Format : Matroska
Format version : Version 4 / Version 2
File size : 1.53 GiB
Duration : 2 h 34 min
Overall bit rate : 1 423 kb/s
Encoded date : UTC 2017-10-17T21:44:18Z
Video
ID : 1
Format : AVC
Format/Info : Advanced Video Codec
Format profile : High@L3.1
Format settings, CABAC : Yes
Format settings, ReFrames : 4 frames
Codec ID : V_MPEG4/ISO/AVC
Duration : 2 h 34 min
Bit rate : 1 200 kb/s
Width : 720 pixels
Height : 464 pixels
Display aspect ratio : 1.85:1
Original display aspect rat : 1.85:1
Frame rate mode : Constant
Frame rate : 25.000 FPS
Color space : YUV
Audio
ID : 2
Format : AC-3
Format/Info : Audio Coding 3
Mode extension : CM (complete main)
Format settings, Endianness : Big
Codec ID : A_AC3
Duration : 2 h 34 min
Bit rate mode : Constant
Bit rate : 224 kb/s
Channel(s) : 6 channels
Channel positions : Front: L C R, Side: L R, LFE
Sampling rate : 48.0 kHz
Frame rate : 31.250 FPS (1536 spf)
Bit depth : 16 bits
Compression mode : Lossy
Delay relative to video : 20 s 282 ms
Stream size : 247 MiB (16%)







1.53 GB
https://dfiles.eu/files/139msh9h0?redirect

zaterdag 14 oktober 2017

Andar Baahar 1984 1CD DVDRip x264 AAC.Arabic.Esubs [TMB].BY.juleyano

Andar Baahar 1984 1CD DVDRip x264 AAC.Arabic.Esubs [TMB].BY.juleyano


http://www.imdb.com/title/tt0086892/
Stars: Beena Banerjee, Jackie Shroff, Anil Kapoor |
Format : Matroska
Format version : Version 2
File size : 707 MiB
Duration : 2h 18mn
Overall bit rate : 715 Kbps
Video
ID : 1
Format : AVC
Format/Info : Advanced Video Codec
Format profile : High@L3
Format settings, CABAC : Yes
Format settings, ReFrames : 3 frames
Codec ID : V_MPEG4/ISO/AVC
Nominal bit rate : 609 Kbps
Width : 704 pixels
Height : 336 pixels
Display aspect ratio : 2.095
Frame rate mode : Variable
Original frame rate : 29.970 fps
Audio
ID : 2
Format : AAC
Format/Info : Advanced Audio Codec
Format profile : LC
Codec ID : A_AAC
Duration : 2h 18mn
Channel(s) : 2 channels
Channel positions : Front: L R
Sampling rate : 32.0 KHz
Compression mode : Lossy
Text
ID : 3
Format : VobSub
Codec ID : S_VOBSUB
Codec ID/Info : Picture based subtitle format used on DVDs
Language : English








704.02 MB
http://gulfup.co/ozhq8x54rqmx
الترجمة العربية الاحترافية بالرابط التالي
http://egystars.com/vb/showthread.php?t=15442

vrijdag 13 oktober 2017

Bhagat Singh 23 March 1931 Shaheed (2002) DvDRipX264.AAC.Arabic.Esub.by.juleyano

Bhagat Singh 23 March 1931 Shaheed (2002) DvDRipX264.AAC.Arabic.Esub.by.juleyano


http://www.imdb.com/title/tt0324951/
Stars: Bobby Deol, Sunny Deol, Amrita Singh |
Format : MPEG-4
Format profile : Base Media / Version 2
Codec ID : mp42 (isom/iso2/avc1/mp41)
File size : 671 MiB
Duration : 3 h 7 min
Overall bit rate mode : Variable
Overall bit rate : 500 kb/s
Encoded date : UTC 2016-04-19 0528
Video
ID : 1
Format : AVC
Format/Info : Advanced Video Codec
Format profile : High@L3.1
Format settings, CABAC : Yes
Format settings, ReFrames : 4 frames
Codec ID : avc1
Codec ID/Info : Advanced Video Coding
Duration : 3 h 7 min
Bit rate : 367 kb/s
Width : 640 pixels
Height : 276 pixels
Display aspect ratio : 2.35:1
Frame rate mode : Variable
Frame rate : 23.976 (24000/1001) FPS
Minimum frame rate : 23.810 FPS
Maximum frame rate : 24.390 FPS
Color space : YUV
Audio
ID : 2
Format : AAC
Format/Info : Advanced Audio Codec
Format profile : LC
Codec ID : 40
Duration : 3 h 7 min
Bit rate mode : Variable
Bit rate : 126 kb/s
Channel(s) : 2 channels
Channel positions : Front: L R
Sampling rate : 44.1 kHz
Frame rate : 43.066 FPS (1024 spf)
Compression mode : Lossy
Stream size : 169 MiB (








665.19 MB
https://dfiles.eu/files/c33bj8r2w?redirect
الترجمة العربية الاحترافية بالرابط التالي
http://egystars.com/vb/showthread.php?t=15455